Скачать через торрент Спарта Фильм бесплатно в хорошем качестве torrent

Скачивайте на UnionPeer.org фильмы через торрент без регистрации. Новинки кино в хорошем качестве через торрент. На UnionPeer.org можно скачать через торрент фильмы 2014 и 2015 годов. Самые новые фильмы.

Скачать торрент Спарта бесплатно через .torrent фильм мультфильм сериал

Статистика раздачи
Размер:  1.37 GB   |    Зарегистрирован:  2 года 2 месяца   |    .torrent скачан:  143 раза   |   
Раздают:  1  
   
загрузка...
 
Автор Сообщение

Galfimbul

avatar Galfimbul


Спарта
Оригинальное название: Спарта
Год выпуска: 2016
Жанр: Боевик, драма
Выпущено: Россия, Арго Фильм
Продолжительность: 01:20:29
Язык: Русский [Camrip]

Режиссер: Николай Кудряшов
В ролях: Николай Кудряшов, Денис Никифоров, Ян Цапник, Владимир Епифанцев, Максим Коновалов, Андрей Семенов, Михаил Малютин, Александр Шлеменко, Наталия Власова

О фильме: Прямоугольный ринг и две команды бойцов друг напротив друга. Когда силы кончаются, товарища сменяет тот, кто за спиной… Это — Спарта! Новый зрелищный вид единоборств. «Спарта» для бывшего чемпиона по боям без правил Николая — единственная возможность вернуться в большой спорт и решить все проблемы, которые свалились на него три года назад: драка за честь подруги и тюрьма, предательство возлюбленной и отказ тренера в возвращении в команду. Вместе с верными друзьями спортсмен готов бросить вызов всему миру, и ставкой в бои станет его будущая жизнь.

Kinopoisk

Качество: CAMRip
Формат: AVI
Видео: XviD, 2036 Кбит/с, 720x304
Аудио: AC3, 2 ch, 384 Кбит/с
: D:\sources\Sparta.2O16.D.CAMRip.14OOMB.avi
Формат : AVI
Формат/Информация : Audio Video Interleave
Размер файла : 1,37 Гбайт
Продолжительность : 1 ч. 20 м.
Общий поток : 2431 Кбит/сек
Программа кодирования : VirtualDubMod 1.5.10.2 (build 2540/release)
Библиотека кодирования : VirtualDubMod build 2540/release

Видео
Идентификатор : 0
Формат : MPEG-4 Visual
Профиль формата : Advanced Simple@L5
Параметр BVOP формата : 2
Параметр QPel формата : Нет
Параметр GMC формата : Без точки перехода
Параметр матрицы формата : Выборочная
Идентификатор кодека : XVID
Идентификатор кодека/Подсказка : XviD
Продолжительность : 1 ч. 20 м.
Битрейт : 2036 Кбит/сек
Ширина : 720 пикселей
Высота : 304 пикселя
Соотношение сторон : 2,35:1
Частота кадров : 29,970 (30000/1001) кадров/сек
Цветовое пространство : YUV
Субдискретизация насыщенности : 4:2:0
Битовая глубина : 8 бит
Тип развёртки : Прогрессивная
Метод сжатия : С потерями
Бит/(Пиксели*Кадры) : 0.310
Размер потока : 1,14 Гбайт (84%)
Библиотека кодирования : XviD 1.2.1 (UTC 2008-12-04)

Аудио
Идентификатор : 1
Формат : AC-3
Формат/Информация : Audio Coding 3
Расширение режима : CM (complete main)
Параметр Endianness формата : Big
Идентификатор кодека : 2000
Продолжительность : 1 ч. 20 м.
Вид битрейта : Постоянный
Битрейт : 384 Кбит/сек
Каналы : 2 канала
Расположение каналов : Front: L R
Частота : 48,0 КГц
Частота кадров : 31,250 кадров/сек (1536 spf)
Метод сжатия : С потерями
Размер потока : 221 Мбайт (16%)
Выравнивание : Разделение по промежуткам
Продолжительность промежутка : 33 мс. (1,00 видеокадр)
Время предзагрузки промежутка : 500 мс.


Трекер:  [ 21-Сен-2016 21:21 ]

  

Скачать .torrent

Размер .torrent файла 14 KB


Размер: 1.37 GB
Хэш (hash) релиза: 30151c801525baf9a025d328579ae837a8f14b25
Подписка на обновления:

Торренты, похожие на Спарта скачать торрент

Форум Название Автор Размер S L Добавлен
Российские фильмы до 2016 ·· Спарта (Николай Кудряшов) [2016, Россия, Боевик, драма, спорт, HDTV 1080i] Original Rus Galfimbul 62367894565.81 GB 0 0 1516615682

13:08

22-Янв-18

Российские фильмы до 2016 ·· Спарта (Николай Кудряшов) [2016, Боевик, драма, спорт, HDTVRip] Galfimbul 14783938561.38 GB 0 0 1516114813

18:00

16-Янв-18

Спорт ·· Чемпионат Голландии 2017-18 / 17-й тур / Спарта - Фейеноорд / Спорт 1 [17/12/2017, футбол, IPTVRip/576p/25fps, MKV/H.264, RU] Galfimbul 19075388541.78 GB 0 0 1513525789

18:49

17-Дек-17

Документальные фильмы и телепередачи ·· Тайны древности: Расцвет и падение Спарты / Ancient Mysteries - Rise And Fall Of The Spartans (Ричард Шмидт / Richard Schmidt)[1995, Научно-популярный, DVDRip] Galfimbul 31284224002.91 GB 0 0 1499278517

21:15

5-Июл-17

Спорт ·· КЕЧ-2008. Финал. Металлург(Мгн)-Спарта(Чехия) [14.01.2008, Хоккей, TVRip, AVI, НТВ+] Galfimbul 21135749121.97 GB 0 0 1488719655

16:14

5-Мар-17

Спорт ·· Лига Европы 2016-2017 / 1/16 финала / Ответный матч / Спарта (Чехия) - Ростов (Россия) / Матч! HD [23.02.2017, Футбол, Футбол, HDRip/AVI/XviD, 400p] Galfimbul 16080231721.5 GB 0 0 1487941198

15:59

24-Фев-17

Спорт ·· Лига Европы 2016-2017 / 1/16 финала / Ответный матч / Спарта (Чехия) - Ростов (Россия) / Матч! HD [23.02.2017, Футбол, WEB-DL HD/MKV/AVC, 1080p] Galfimbul 33530937603.12 GB 0 0 1487919481

09:58

24-Фев-17

Спорт ·· Лига Европы 2016-2017 / 1/16 финала / 1-й матч / Ростов (Ростов-на-Дону, Россия) - Спарта П (Прага, Чехия) / Матч ТВ HD [16.02.2017, Футбол, HDRip, XviD, RU] Galfimbul 14288301161.33 GB 0 0 1487285091

01:44

17-Фев-17

Спорт ·· Лига Европы 2016-2017 / 1/16 финала / 1-й матч / Ростов (Ростов-на-Дону, Россия) - Спарта П (Прага, Чехия) / Матч ТВ HD [16.02.2017, Футбол, HDTVRip/720p/25fps, MKV/H.264, RU] Galfimbul 32585676833.03 GB 0 0 1487279230

00:07

17-Фев-17

Спорт ·· Товарищеский матч 2017 | Зенит (Санкт-Петербург, Россия) - Спарта (Прага, Чехия) | Наш Футбол HD [03.02.2017, Футбол, MKV, 1080i, H264, RUS, HDTV] Galfimbul 81636253447.6 GB 0 0 1486164339

02:25

4-Фев-17

Спорт ·· Чемпионат Нидерландов 2016-2017 / 20-й тур / Виллем II – Спарта / Fox Sports 3 [27.01.2017, Футбол, HDTVRip/720p/AVC] Galfimbul 21991580432.05 GB 0 0 1485633918

23:05

28-Янв-17

Спорт ·· Чемпионат Голландии 2016-2017 / 15-й тур / Фейеноорд - Спарта / Sky Sports 5HD [04.12.2016, футбол, WEBRip, 480p, EN] Galfimbul 1042022240994 MB 0 0 1480885149

23:59

4-Дек-16

Спорт ·· Лига Европы 2016-2017 / Групповой этап / Группа K / 5-й тур / Спарта (Чехия) - Саутгемптон (Англия) [24.11.2016, футбол, WEBRip, 480p, EN] Galfimbul 949927443906 MB 0 0 1480054988

09:23

25-Ноя-16

Спорт ·· Лига Европы 2016-2017 / Группа K / Спарта (Чехия) — Интер (Италия) / НТВ+ [29.09.2016, Футбол, XviD, HDRip] Galfimbul 15630198701.46 GB 0 0 1475178934

22:55

29-Сен-16

Российские фильмы до 2016 ·· Спарта (Николай Кудряшов) [2016, Россия, боевик, драма, WEB-DL 1080p] Galfimbul 32623344813.04 GB 0 0 1474653372

20:56

23-Сен-16

Российские фильмы до 2016 ·· Спарта (Николай Кудряшов) [2016, Боевик, драма, WEB-DLRip] Galfimbul 780005490744 MB 0 0 1474634003

15:33

23-Сен-16

Российские фильмы до 2016 ·· Спарта (Николай Кудряшов) [2016, Боевик, драма, WEB-DLRip] Galfimbul 15650652161.46 GB 0 0 1474614071

10:01

23-Сен-16

Российские фильмы 2016-2018 (Новинки русского кино) ·· Спарта (Николай Кудряшов) [2016, Боевик, драма, WEB-DLRip] iTunes Galfimbul 15693967361.46 GB 0 0 1474607497

08:11

23-Сен-16

Российские фильмы 2016-2018 (Новинки русского кино) ·· Спарта (Николай Кудряшов) [2016, Боевик, драма, WEB-DL 720p] iTunes Galfimbul 27233253032.54 GB 0 0 1474607488

08:11

23-Сен-16

Российские фильмы 2016-2018 (Новинки русского кино) ·· Спарта (Николай Кудряшов) [2016, Боевик, драма, WEB-DL 1080p] iTunes Galfimbul 32623344813.04 GB 0 0 1474607472

08:11

23-Сен-16

Еще никто не оставлял запись к записи скачать торрент Спарта . Будь первым!

!Обратная связь