Скачать через торрент Московские тайны. Семь сестер Сезон-2 Фильм бесплатно в хорошем качестве torrent

Скачивайте на UnionPeer.org фильмы через торрент без регистрации. Новинки кино в хорошем качестве через торрент. На UnionPeer.org можно скачать через торрент фильмы 2014 и 2015 годов. Самые новые фильмы.

Скачать торрент Московские тайны. Семь сестер Сезон-2 бесплатно через .torrent фильм мультфильм сериал

Статистика раздачи
Размер:  1.16 GB   |    Зарегистрирован:  2 месяца 3 дня   |    .torrent скачан:  159 раз   |   
Раздают:  1  
   
загрузка...
 
Автор Сообщение

aleksan55

avatar aleksan55


Московские тайны. Семь сестер

Год выпуска: 2018
Страна: Россия | Приор Продакшн
Жанр: детектив
Продолжительность: 00:44:00
Субтитры: нет
Режиссёр: Александр Баршак

В ролях: Анна Старшенбаум,Евгений Пронин,Павел Левкин,Алексей Макаров,Юлия Шарова,Иван Жвакин,Владислав Ветров,Александр Робак,Екатерина Семенова,Алексей Лонгин
Описание:
В прошлом прима советского балета, а ныне пожилая одинокая женщина найдена убитой у себя дома, в высотке на Котельнической набережной. Из квартиры ничего не пропало, дверь не взломана, а на оконном стекле проступают начертанные пальцами мольбы о помощи. И пока Настя Вяземская ищет корыстный мотив для этого преступления, еще один человек становится жертвой неуловимого убийцы. А вскоре выяснится, что нечто странное происходит и в остальных московских высотках. Недаром так называемые «семь сестер» связаны между собой загадочной нитью, и Насте нужно распутать эту нить до конца.

Качество: SATRip-AVC
Формат: MKV
Видео кодек: H.264
Аудио кодек: AC3
Видео: MPEG4 Video (H264), 1024x576, 25fps,1700 Kbps,bit/pixel 0.236
Аудио : AC3 48000Hz, stereo, 192 kbps,2 ch
Общее
Уникальный идентификатор : 225382235564097507823224466588279825222 (0xA98F0A25E2A0F497BAFD31D924B8E346)
Полное имя : D:\Московские тайны. Семь сестер\01 серия_Московские тайны. Семь сестер_rip by_Aleksan55.mkv
Формат : Matroska
Версия формата : Version 2
Размер файла : 596 Мбайт
Продолжительность : 44 м. 0 с.
Общий поток : 1893 Кбит/сек
Дата кодирования : UTC 2018-10-12 15:01:34
Программа кодирования : mkvmerge v7.8.0 ('River Man') 32bit built on Apr 3 2015 12:11:22
Библиотека кодирования : libebml v1.3.1 + libmatroska v1.4.2

Видео
Идентификатор : 1
Формат : AVC
Формат/Информация : Advanced Video Codec
Профиль формата : High@L4.1
Параметр CABAC формата : Да
Параметр ReFrames формата : 14 кадров
Идентификатор кодека : V_MPEG4/ISO/AVC
Продолжительность : 44 м. 0 с.
Битрейт : 1700 Кбит/сек
Ширина : 720 пикселей
Высота : 400 пикселей
Соотношение сторон : 16:9
Режим частоты кадров : Постоянный
Частота кадров : 25,000 кадров/сек
Цветовое пространство : YUV
Субдискретизация насыщенности : 4:2:0
Битовая глубина : 8 бит
Тип развёртки : Прогрессивная
Бит/(Пиксели*Кадры) : 0.236
Размер потока : 524 Мбайт (88%)
Библиотека кодирования : x264 core 146 r2538 121396c
Настройки программы : cabac=1 / ref=14 / deblock=1:-1:-1 / analyse=0x3:0x133 / me=umh / subme=9 / psy=1 / psy_rd=0.90:0.00 / mixed_ref=0 / me_range=32 / chroma_me=1 / trellis=1 / 8x8dct=1 / cqm=0 / deadzone=21,11 / fast_pskip=0 / chroma_qp_offset=-2 / threads=12 / lookahead_threads=1 / sliced_threads=0 / nr=0 / decimate=0 / interlaced=0 / bluray_compat=0 / constrained_intra=0 / bframes=14 / b_pyramid=2 / b_adapt=1 / b_bias=0 / direct=3 / weightb=1 / open_gop=0 / weightp=2 / keyint=250 / keyint_min=25 / scenecut=40 / intra_refresh=0 / rc_lookahead=40 / rc=2pass / mbtree=1 / bitrate=1700 / ratetol=1.0 / qcomp=0.60 / qpmin=0 / qpmax=39 / qpstep=4 / cplxblur=20.0 / qblur=0.5 / ip_ratio=1.40 / aq=1:1.00
Default : Да
Forced : Нет
Цветовой диапазон : Limited
Основные цвета : BT.601 PAL
Характеристики трансфера : BT.470 System B, BT.470 System G
Коэффициенты матрицы : BT.601

Аудио
Идентификатор : 2
Формат : AC-3
Формат/Информация : Audio Coding 3
Расширение режима : CM (complete main)
Параметр Endianness формата : Big
Идентификатор кодека : A_AC3
Продолжительность : 44 м. 0 с.
Вид битрейта : Постоянный
Битрейт : 192 Кбит/сек
Каналы : 2 канала
Расположение каналов : Front: L R
Частота : 48,0 КГц
Частота кадров : 31,250 кадров/сек (1536 spf)
Битовая глубина : 16 бит
Метод сжатия : С потерями
Размер потока : 60,4 Мбайт (10%)
Default : Да
Forced : Нет


Трекер:  [ 12-Окт-2018 20:41 ]

  

Скачать .torrent

Размер .torrent файла 12 KB


Размер: 1.16 GB
Хэш (hash) релиза: 57eb5373cc51ce909e76950bd1b0955277ce0ebf
Подписка на обновления:

Еще никто не оставлял запись к записи скачать торрент Московские тайны. Семь сестер Сезон-2 . Будь первым!

!Обратная связь