Скачать через торрент Психонавты, забытые дети Psiconautas, los ni?os olvidados Фильм бесплатно в хорошем качестве torrent

Скачивайте на UnionPeer.org фильмы через торрент без регистрации. Новинки кино в хорошем качестве через торрент. На UnionPeer.org можно скачать через торрент фильмы 2014 и 2015 годов. Самые новые фильмы.

Скачать торрент Психонавты, забытые дети Psiconautas, los ni?os olvidados бесплатно через .torrent фильм мультфильм сериал

Статистика раздачи
Размер:  745 MB   |    Зарегистрирован:  29 дней   |    .torrent скачан:  117 раз   |   
Раздают:  1  
   
загрузка...
 
Автор Сообщение

Galfimbul

avatar Galfimbul


Психонавты, забытые дети /Psiconautas, los ni?os olvidados

Год выхода: 2015
Жанр: мультфильм, ужасы, фантастика, драма
Режиссер: Педро Риверо / Pedro Rivero, Альберто Васкес / Alberto V?zquez
В ролях: Andrea Alzuri, Eva Ojanguren, Josu Cubero, Феликс Аркарасо, Хорхе Карреро, Nuria Mar?n, Josu Varela, Jon Goiri, Марибель Легаррета, Iker Diez
О фильме:
На некогда прекрасном острове произошла техногенная катастрофа, и теперь добрая его половина утопает в отходах. Часть населения роется в горах мусора, выискивая медь, а часть пытается вести привычный образ жизни. Школьница-мышка Динки с друзьями мечтает сбежать с ненавистного острова и надеется, что её бывший парень — парень-птица — научится хорошо летать и заберёт её в другое место. А тот скрывается от охотников и борется с демоном, пожирающим его изнутри.


Страна: Испания, Япония
Студия: Abrakan Estudio, Basque Films, Competencia Producciones
Продолжительность: 01:16:23
Перевод: Любительский (двухголосый закадровый) | NewStation

Файл
Кодек: H.264
Качество: HDRip-AVC (BDRip 1080p)
Видео: High@L4.1; 768x408; 1299 Кбит/сек; 23,976 кадра/сек; 0.173
Звук: HE-AAC / LC; 48,0 КГц / 24,0 КГц; 64,0 Кбит/сек; 2 канала
Субтитры: нет
Главы: Да

Общее
Уникальный идентификатор : 203818988475855524862479794253567319079 (0x99561BFC0134A95CB3BE0EA0625F5C27)
Полное имя : D:Фильмы_ИзбранноеПсихонавты, забытые дети (2015) HDRip L2.mkv
Формат : Matroska
Версия формата : Version 4 / Version 2
Размер файла : 745 Мбайт
Продолжительность : 1 ч. 16 м.
Общий поток : 1364 Кбит/сек
Дата кодирования : UTC 2018-11-16 16:28:22
Программа кодирования : mkvmerge v9.8.0 ('Kuglblids') 64bit
Библиотека кодирования : libebml v1.3.4 + libmatroska v1.4.5

Видео
Идентификатор : 1
Формат : AVC
Формат/Информация : Advanced Video Codec
Профиль формата : High@L4.1
Настройки формата : CABAC / 16 Ref Frames
Параметр CABAC формата : Да
Параметр RefFrames формата : 16 кадров
Идентификатор кодека : V_MPEG4/ISO/AVC
Продолжительность : 1 ч. 16 м.
Битрейт : 1299 Кбит/сек
Ширина : 768 пикселей
Высота : 408 пикселей
Соотношение сторон : 1,882
Режим частоты кадров : Постоянный
Частота кадров : 23,976 (24000/1001) кадра/сек
Цветовое пространство : YUV
Субдискретизация насыщенности : 4:2:0
Битовая глубина : 8 бит
Тип развёртки : Прогрессивная
Бит/(Пиксели*Кадры) : 0.173
Размер потока : 709 Мбайт (95%)
Библиотека кодирования : x264 core 157 r2935 545de2f
Настройки программы : cabac=1 / ref=16 / deblock=1:-1:-1 / analyse=0x3:0x133 / me=umh / subme=10 / psy=1 / psy_rd=1.00:0.15 / mixed_ref=1 / me_range=24 / chroma_me=1 / trellis=2 / 8x8dct=1 / cqm=0 / deadzone=21,11 / fast_pskip=1 / chroma_qp_offset=-3 / threads=6 / lookahead_threads=1 / sliced_threads=0 / nr=0 / decimate=1 / interlaced=0 / bluray_compat=0 / constrained_intra=0 / bframes=8 / b_pyramid=2 / b_adapt=2 / b_bias=0 / direct=3 / weightb=1 / open_gop=0 / weightp=2 / keyint=240 / keyint_min=23 / scenecut=40 / intra_refresh=0 / rc_lookahead=60 / rc=2pass / mbtree=0 / bitrate=1299 / ratetol=1.0 / qcomp=0.60 / qpmin=0 / qpmax=69 / qpstep=4 / cplxblur=20.0 / qblur=0.5 / vbv_maxrate=50000 / vbv_bufsize=62500 / nal_hrd=none / filler=0 / ip_ratio=1.40 / pb_ratio=1.30 / aq=1:1.00
Default : Да
Forced : Нет

Аудио
Идентификатор : 2
Формат : AAC
Формат/Информация : Advanced Audio Codec
Профиль формата : HE-AAC / LC
Настройки формата : Explicit
Идентификатор кодека : A_AAC-2
Продолжительность : 1 ч. 15 м.
Битрейт : 64,0 Кбит/сек
Каналы : 2 канала
Расположение каналов : Front: L R
Частота : 48,0 КГц / 24,0 КГц
Частота кадров : 23,438 кадра/сек (1024 SPF)
Метод сжатия : С потерями
Задержка видео : 31 мс.
Размер потока : 34,8 Мбайт (5%)
Заголовок : L2 (NewStation)
Язык : Russian
Default : Да
Forced : Нет

Меню
00:00:00.000 : en:00:00:00.000
00:06:29.139 : en:00:06:29.139
00:12:21.741 : en:00:12:21.741
00:17:33.511 : en:00:17:33.511
00:22:45.864 : en:00:22:45.864
00:27:06.333 : en:00:27:06.333
00:33:33.637 : en:00:33:33.637
00:40:05.153 : en:00:40:05.153
00:45:09.498 : en:00:45:09.498
00:50:50.547 : en:00:50:50.547
00:55:28.033 : en:00:55:28.033
00:59:10.005 : en:00:59:10.005
01:04:53.473 : en:01:04:53.473
01:08:59.886 : en:01:08:59.886
01:11:04.886 : en:01:11:04.886
Источник http://BlaTor.org

Трекер:  [ 17-Ноя-2018 02:00 ]

  

Скачать .torrent

Размер .torrent файла 15 KB


Размер: 745 MB
Хэш (hash) релиза: 609f398f956813de1fea091a06c91c6f1f37021c
Подписка на обновления:

Торренты, похожие на Психонавты, забытые дети Psiconautas, los ni?os olvidados скачать торрент

Форум Название Автор Размер S L Добавлен
Мультфильмы до 2016 ·· Психонавты, забытые дети / Psiconautas, los niños olvidados / Birdboy: The Forgotten Children (Педро Риверо / Alberto Vázquez) [2015, Испания, мультфильм, ужасы, фантастика, драма, WEB-DL 1080p] DVO + (NewStation) + Rus Sub Galfimbul 31413750572.93 GB 0 0 1524078126

22:02

18-Апр-18

Еще никто не оставлял запись к записи скачать торрент Психонавты, забытые дети Psiconautas, los ni?os olvidados . Будь первым!

!Обратная связь