Скачать через торрент Вечная жизнь Александра Христофорова Фильм бесплатно в хорошем качестве torrent

Скачивайте на UnionPeer.org фильмы через торрент без регистрации. Новинки кино в хорошем качестве через торрент. На UnionPeer.org можно скачать через торрент фильмы 2014 и 2015 годов. Самые новые фильмы.

Скачать торрент Вечная жизнь Александра Христофорова бесплатно через .torrent фильм мультфильм сериал

Статистика раздачи
Размер:  2.15 GB   |    Зарегистрирован:  10 дней   |    .torrent скачан:  43 раза   |   
Раздают:  1  
   
загрузка...
 
Автор Сообщение

Galfimbul

avatar Galfimbul


Вечная жизнь Александра Христофорова



[b]Год выхода:
2018
Жанр: комедия
Режиссер: Евгений Шелякин
В ролях: Алексей Гуськов, Оксана Фандера, Тимофей Трибунцев, Роман Курцын, Игорь Угольников, Лидия Вележева, Полина Пушкарук, Станислав Любшин, Анастасия Сомова, Александр Гох

О фильме: В прошлом Христофоров был звездой театра и кино, теперь он аниматор в курортном городке. Но бывший актер не отчаивается — живет здесь и сейчас. И пусть бывшая жена строит козни, а сын его избегает, Христофоров упорно двигается дальше. После скандального увольнения фортуна делает герою сказочный подарок в виде любимой женщины. Поможет ли судьбоносная встреча изменить жизнь вечного неудачника?



Страна: Россия / 58,5 продакшн
Продолжительность: 01:44:35
Перевод: Не требуется (русский) [iTunes]

Файл
Качество: WEB-DLRip-AVC
Формат: MKV
Видео: MPEG-4 AVC, 2600 Кбит/сек, 1024x430
Звук: AC3, 6 ch, 384 Кбит/сек
Субтитры: нет
Общее
Уникальный идентификатор : 187472381080906671441791856877290408258 (0x8D09DE03E50F045AC282E785D67C4942)
Полное имя : F:Диск2. ФИЛЬМЫ СНГВечная жизнь Александра Христофорова (2018)Zhiznj Hristoforova 2018 WEB-DLRip-AVC.mkv
Формат : Matroska
Версия формата : Version 4
Размер файла : 2,15 Гбайт
Продолжительность : 1 ч. 44 м.
Общий поток : 2943 Кбит/сек
Программа кодирования : XviD4PSP 7.0.459 DAILY
Библиотека кодирования : Lavf57.71.100
Авторское право : [#ZsU®]
ErrorDetectionType : Per level 1
Attachments : poster.jpg
ENCODING_INFO : MATROSKA,WEBM > MKV Пользовательский / H264 > X264 ABR 2600kbps HQ / AC3 > AC3 CBR 384kbps
Язык : und

Видео
Идентификатор : 1
Формат : AVC
Формат/Информация : Advanced Video Codec
Профиль формата : High@L4.1
Настройки формата : CABAC / 10 Ref Frames
Параметр CABAC формата : Да
Параметр RefFrames формата : 10 кадров
Идентификатор кодека : V_MPEG4/ISO/AVC
Продолжительность : 1 ч. 44 м.
Битрейт : 2600 Кбит/сек
Ширина : 1024 пикселя
Высота : 430 пикселей
Соотношение сторон : 2,40:1
Режим частоты кадров : Постоянный
Частота кадров : 23,976 (24000/1001) кадра/сек
Цветовое пространство : YUV
Субдискретизация насыщенности : 4:2:0
Битовая глубина : 8 бит
Тип развёртки : Прогрессивная
Бит/(Пиксели*Кадры) : 0.246
Размер потока : 1,83 Гбайт (85%)
Библиотека кодирования : x264 core 157 r2901M 7d0ff22
Настройки программы : cabac=1 / ref=11 / deblock=1:-3:-3 / analyse=0x3:0x133 / me=umh / subme=11 / psy=1 / psy_rd=1.00:0.20 / mixed_ref=1 / me_range=32 / chroma_me=1 / trellis=2 / 8x8dct=1 / cqm=0 / deadzone=21,11 / fast_pskip=1 / chroma_qp_offset=-3 / threads=12 / lookahead_threads=1 / sliced_threads=0 / nr=0 / decimate=1 / interlaced=0 / bluray_compat=0 / constrained_intra=0 / bframes=11 / b_pyramid=1 / b_adapt=1 / b_bias=11 / direct=1 / weightb=1 / open_gop=0 / weightp=1 / keyint=240 / keyint_min=24 / scenecut=40 / intra_refresh=0 / rc_lookahead=40 / rc=abr / mbtree=1 / bitrate=2600 / ratetol=1.0 / qcomp=0.60 / qpmin=0 / qpmax=69 / qpstep=4 / ip_ratio=1.40 / aq=1:1.00
Язык : Russian
Default : Да
Forced : Нет
Цветовой диапазон : Limited
Основные цвета : BT.709
Характеристики трансфера : BT.709
Коэффициенты матрицы : BT.709

Аудио
Идентификатор : 2
Формат : AC-3
Формат/Информация : Audio Coding 3
Коммерческое название : Dolby Digital
Идентификатор кодека : A_AC3
Продолжительность : 1 ч. 44 м.
Вид битрейта : Постоянный
Битрейт : 384 Кбит/сек
Каналы : 6 каналов
Channel layout : L R C LFE Ls Rs
Частота : 48,0 КГц
Частота кадров : 31,250 кадров/сек (1536 SPF)
Битовая глубина : 16 бит
Метод сжатия : С потерями
Размер потока : 287 Мбайт (13%)
Заголовок : iTunes
Язык : Russian
Default : Да
Forced : Нет
СЕМПЛ
Источник http://BlaTor.org

Трекер:  [ 05-Дек-2018 17:50 ]

  

Скачать .torrent

Размер .torrent файла 11 KB


Размер: 2.15 GB
Хэш (hash) релиза: 0078c11d031dd459534a0842d59840c1a21436f3
Подписка на обновления:

Еще никто не оставлял запись к записи скачать торрент Вечная жизнь Александра Христофорова . Будь первым!

!Обратная связь