Скачать через торрент Звёздные войны: Сопротивление Star Wars Resistance Фильм бесплатно в хорошем качестве torrent

Скачивайте на UnionPeer.org фильмы через торрент без регистрации. Новинки кино в хорошем качестве через торрент. На UnionPeer.org можно скачать через торрент фильмы 2014 и 2015 годов. Самые новые фильмы.

Скачать торрент Звёздные войны: Сопротивление Star Wars Resistance бесплатно через .torrent фильм мультфильм сериал

Статистика раздачи
Размер:  5.82 GB   |    Зарегистрирован:  10 дней   |    .torrent скачан:  31 раз   |   
Раздают:  1  
   
загрузка...
 
Автор Сообщение

Galfimbul

avatar Galfimbul


Звёздные войны: Сопротивление / Star Wars Resistance

Год выпуска: 2018
Жанр: Мультсериал, фантастика, боевик, приключения
Режиссер: Эми Бет Кристенсон, Дэйв Филони
В ролях: Алексис Лэнг, Крис Фрил, Скотт Лоуренс, Джош Бренер, Рэйчел Батера, Гвендолин Кристи, Дональд Фэйзон, Оскар Айзек, Мэри Элизабет МакГлинн, Сьюзи МакГрат

О фильме:
Кадзуда Сионо — молодой пилот, недавно вступивший в ряды Сопротивления под командованием генерала Леи. Несмотря на юный возраст, Кадзуде поручают важное задание — разведать, чем занимается Первый орден.

Страна: США
Студия: Disney XD, Lucasfilm Animation, Lucasfilm
Продолжительность: 9 x ~ 00:22:00
Перевод: Любительский многоголосый | ColdFilm

Файл
Кодек: x264 (AVC)
Качество: WEBRip 720p
Видео: ~ 4500 Кбит/с, 1280x720, 25.000 fps
Звук: Русский / MP3 / 2.0 / 128 kbs

General
Unique ID : 178090388299186374733105380635925106203 (0x85FAF60ECC3789B497134011C3994E1B)
Complete name :Star.Wars.Resistance.S01E01.720p.ColdFilm.mkv
Format : Matroska
Format version : Version 2
File size : 1.43 GiB
Duration : 43 min 49 s
Overall bit rate : 4 673 kb/s
Encoded date : UTC 2018-10-07 18:41:46 / UTC 2017-11-20 18:25:40
Writing application : mkvmerge v3.3.0 ('Language') built on Mar 24 2010 14:59:24
Writing library : libebml v0.8.0 + libmatroska v0.9.0 / Lavf54.63.104

Video
ID : 1
Format : AVC
Format/Info : Advanced Video Codec
Format profile : Main@L4
Format settings : CABAC / 1 Ref Frames
Format settings, CABAC : Yes
Format settings, ReFrames : 1 frame
Codec ID : V_MPEG4/ISO/AVC
Duration : 43 min 49 s
Bit rate : 4 500 kb/s
Width : 1 280 pixels
Height : 720 pixels
Display aspect ratio : 16:9
Frame rate mode : Constant
Frame rate : 25.000 FPS
Color space : YUV
Chroma subsampling : 4:2:0
Bit depth : 8 bits
Scan type : Progressive
Bits/(Pixel*Frame) : 0.087
Stream size : 1.34 GiB (94%)
Writing library : x264 core 129
Default : No
Forced : No

Audio
ID : 2
Format : AC-3
Format/Info : Audio Coding 3
Codec ID : A_AC3
Duration : 43 min 49 s
Bit rate mode : Constant
Bit rate : 192 kb/s
Channel(s) : 2 channels
Channel positions : Front: L R
Sampling rate : 48.0 kHz
Frame rate : 31.250 FPS (1536 SPF)
Bit depth : 16 bits
Compression mode : Lossy
Stream size : 60.2 MiB (4%)
Service kind : Complete Main
Default : Yes
Forced : No
Релиз от:
Источник http://BlaTor.org

Трекер:  [ 06-Дек-2018 08:40 ]

  

Скачать .torrent

Размер .torrent файла 30 KB


Размер: 5.82 GB
Хэш (hash) релиза: ff0bce55c322a62207be77be057b433284fe5cd3
Подписка на обновления:

Торренты, похожие на Звёздные войны: Сопротивление Star Wars Resistance скачать торрент

Форум Название Автор Размер S L Добавлен
Мультфильмы 2016-2018 (Новинки мультфильмов) ·%· Звёздные войны: Сопротивление / Star Wars Resistance [01x01-09 из 10] (2018) WEBRip | ColdFilm Galfimbul 28045407822.61 GB 0 0 1543842207

16:03

3-Дек-18

Мультфильмы 2016-2018 (Новинки мультфильмов) ·%· Звёздные войны: Сопротивление / Star Wars Resistance [01x01-08 из 10] (2018) WEBRip 720p | ColdFilm Galfimbul 56269551695.24 GB 0 0 1543227094

13:11

26-Ноя-18

Мультфильмы 2016-2018 (Новинки мультфильмов) ·%· Звёздные войны: Сопротивление / Star Wars Resistance [01x01-08 из 10] (2018) WEBRip | ColdFilm Galfimbul 25173341102.34 GB 0 0 1543185080

01:31

26-Ноя-18

Мультфильмы 2016-2018 (Новинки мультфильмов) ·%· Звёздные войны: Сопротивление / Star Wars Resistance [01x01-05 из 10] (2018) WEBRip 720p | ColdFilm Galfimbul 37782168083.52 GB 0 0 1542064894

02:21

13-Ноя-18

Мультфильмы 2016-2018 (Новинки мультфильмов) ·%· Звёздные войны: Сопротивление / Star Wars Resistance [01x01-04 из 10] (2018) WEBRip | ColdFilm Galfimbul 13515924281.26 GB 0 0 1539343823

14:30

12-Окт-18

Еще никто не оставлял запись к записи скачать торрент Звёздные войны: Сопротивление Star Wars Resistance . Будь первым!

!Обратная связь