Скачать через торрент Грецкий орешек Фильм бесплатно в хорошем качестве torrent

Скачивайте на UnionPeer.org фильмы через торрент без регистрации. Новинки кино в хорошем качестве через торрент. На UnionPeer.org можно скачать через торрент фильмы 2014 и 2015 годов. Самые новые фильмы.

Скачать торрент Грецкий орешек бесплатно через .torrent фильм мультфильм сериал

Статистика раздачи
Размер:  746 MB   |    Зарегистрирован:  10 дней   |    .torrent скачан:  34 раза   |   
Раздают:  1  
   
загрузка...
 
Автор Сообщение

Galfimbul

avatar Galfimbul


Год выпуска: 2018
Жанр: комедия, приключения
Выпущено: Россия, «Синемафор», «Медиа Трест»
Режиссер: Стас Иванов
В ролях: Кирилл Каганович, Антон Васильев, Александр Робак, Полина Толстун, Михаил Пшеничный, Максим Лагашкин, Геннадий Пачис, Мария Болонкина, Антонина Комиссарова, Анастасия Стежко и др.

О фильме: Кажется, что у Артура всё хорошо. Он молод, остроумен, ведет свое шоу на модном радио, живет с красавицей, на которой собирается жениться. Но! Его избранница вынесла ему мозг. И внезапная страсть к поиску себя подталкивает молодого человека сбежать в Грецию! Там он быстро находит друзей. Вместе они вытворяют такое, что даже местные мафиози не могут пройти мимо. Целая вереница событий и случайностей, опасные и неожиданные моменты поворачивают отпуск совсем в другое русло… Яркая, авантюрная комедия, настоящее путешествие в страну Олимпийского огня и богически красивых дочерей главного греческого мафиози!


Качество: WEB-DLRip
Видео: XviD build 73, 720x304 (2.35:1), 24.000 fps, 1027 Kbps (0.196 bit/pixel)
Аудио: 48.0 kHz, MP3, 2/0 ch, 128 kbps
Продолжительность: 01:29:27
Перевод: Не требуется
Cубтитры: нет
General
Complete name : D:RazdachiGreckij.Oreshek.2018.WEB-DLRip.GeneralFilm.avi
Format : AVI
Format/Info : Audio Video Interleave
File size : 746 MiB
Duration : 1 h 29 min
Overall bit rate : 1 165 kb/s
Writing application : VirtualDubMod 1.5.10.3 | www.virtualdub-fr.org || (build 2550/release)
Writing library : VirtualDubMod build 2550/release

Video
ID : 0
Format : MPEG-4 Visual
Format profile : Advanced Simple@L5
Format settings : BVOP1 / Custom Matrix
Format settings, BVOP : 1
Format settings, QPel : No
Format settings, GMC : No warppoints
Format settings, Matrix : Custom
Codec ID : XVID
Codec ID/Hint : XviD
Duration : 1 h 29 min
Bit rate : 1 027 kb/s
Width : 720 pixels
Height : 304 pixels
Display aspect ratio : 2.35:1
Frame rate : 24.000 FPS
Color space : YUV
Chroma subsampling : 4:2:0
Bit depth : 8 bits
Scan type : Progressive
Compression mode : Lossy
Bits/(Pixel*Frame) : 0.196
Stream size : 658 MiB (88%)
Writing library : XviD 73

Audio
ID : 1
Format : MPEG Audio
Format version : Version 1
Format profile : Layer 3
Codec ID : 55
Codec ID/Hint : MP3
Duration : 1 h 29 min
Bit rate mode : Constant
Bit rate : 128 kb/s
Channel(s) : 2 channels
Sampling rate : 48.0 kHz
Frame rate : 41.667 FPS (1152 SPF)
Compression mode : Lossy
Stream size : 82.0 MiB (11%)
Alignment : Aligned on interleaves
Interleave, duration : 42 ms (1.00 video frame)
Interleave, preload duratio : 504 ms
Writing library : LAME3.99r
Encoding settings : -m s -V 4 -q 2 -lowpass 17 -b 128
Релиз от:
Источник http://BlaTor.org

Трекер:  [ 09-Янв-2019 20:00 ]

  

Скачать .torrent

Размер .torrent файла 15 KB


Размер: 746 MB
Хэш (hash) релиза: c8979439c9b90e7c5bd3b6fc49fba4675a04da8a
Подписка на обновления:

Еще никто не оставлял запись к записи скачать торрент Грецкий орешек . Будь первым!

!Обратная связь