Скачать через торрент Иллюзия обмана 2 Now You See Me 2 Фильм бесплатно в хорошем качестве torrent

Скачивайте на UnionPeer.org фильмы через торрент без регистрации. Новинки кино в хорошем качестве через торрент. На UnionPeer.org можно скачать через торрент фильмы 2014 и 2015 годов. Самые новые фильмы.

Скачать торрент Иллюзия обмана 2 Now You See Me 2 бесплатно через .torrent фильм мультфильм сериал

Статистика раздачи
Размер:  9.12 GB   |    Зарегистрирован:  8 дней   |    .torrent скачан:  10 раз   |   
Раздают:  1  
   
загрузка...
 
Автор Сообщение

Galfimbul

avatar Galfimbul


Год выхода: 2016
Страна: Франция, США
Жанр: Боевик, триллер, комедия, криминал, детектив, приключения
Продолжительность: 02:09:39
Перевод: Дублированный (Лицензия)

Режиссер: Джон М. Чу
В главных ролях: Джесси Айзенберг, Марк Руффало, Вуди Харрельсон, Дэйв Франко, Дэниэл Рэдклифф, Лиззи Каплан, Джей Чоу, Санаа Лэтэн, Майкл Кейн, Морган Фриман

Описание: «Четыре всадника», команда лучших иллюзионистов мира, снова в сборе! Их «магия» стала еще совершеннее, а враги — опаснее. На сей раз им предстоит спасти свою репутацию и вывести на чистую воду жестокого техномагната…

Качество: BDRip 1080p
Видео: HEVC/H.265, 1920x800, ~8822 Kbps
Аудио 1: AC3, 6 ch, 640 Kbps - Дублированный
Аудио 2: AC3, 6 ch, 640 Kbps - Английский
Субтитры: Русские, английские
Общее
Уникальный идентификатор : 173268855864407542575883860686920816609 (0x825A5E27BDAAE47F9381620CAA3517E1)
Полное имя : F:РАЗДАЧИИллюзия обмана 2 (1080p) HEVC.mkv
Формат : Matroska
Версия формата : Version 4 / Version 2
Размер файла : 9,12 Гбайт
Продолжительность : 2 ч. 9 м.
Общий поток : 10,1 Мбит/сек
Дата кодирования : UTC 2016-10-04 13:43:17
Программа кодирования : mkvmerge v9.2.0 ('Photograph') 64bit
Библиотека кодирования : libebml v1.3.3 + libmatroska v1.4.4

Видео
Идентификатор : 1
Формат : HEVC
Формат/Информация : High Efficiency Video Coding
Профиль формата : Main@L4@Main
Идентификатор кодека : V_MPEGH/ISO/HEVC
Продолжительность : 2 ч. 9 м.
Битрейт : 8822 Кбит/сек
Ширина : 1920 пикселей
Высота : 800 пикселей
Соотношение сторон : 2,40:1
Режим частоты кадров : Постоянный
Частота кадров : 23,976 (24000/1001) кадра/сек
Цветовое пространство : YUV
Субдискретизация насыщенности : 4:2:0
Битовая глубина : 8 бит
Бит/(Пиксели*Кадры) : 0.240
Размер потока : 7,96 Гбайт (87%)
Библиотека кодирования : x265 2.1+11-a3d4e3b13c6c:[Windows][GCC 5.3.1][64 bit] 8bit
Настройки программы : wpp / ctu=64 / min-cu-size=8 / max-tu-size=32 / tu-intra-depth=1 / tu-inter-depth=1 / me=2 / subme=5 / merange=57 / no-rect / no-amp / max-merge=5 / temporal-mvp / no-early-skip / rskip / rdpenalty=0 / no-tskip / no-tskip-fast / strong-intra-smoothing / no-lossless / no-cu-lossless / no-constrained-intra / no-fast-intra / open-gop / no-temporal-layers / interlace=0 / keyint=250 / min-keyint=23 / scenecut=40 / rc-lookahead=60 / lookahead-slices=0 / bframes=8 / bframe-bias=0 / b-adapt=2 / ref=5 / limit-refs=3 / no-limit-modes / weightp / weightb / aq-mode=1 / qg-size=64 / aq-strength=1.00 / cbqpoffs=0 / crqpoffs=0 / rd=3 / psy-rd=1.00 / rdoq-level=2 / psy-rdoq=1.00 / log2-max-poc-lsb=8 / no-rd-refine / signhide / deblock=-3:-3 / no-sao / no-sao-non-deblock / b-pyramid / no-cutree / no-intra-refresh / rc=2 / pass / bitrate=8825 / qcomp=0.70 / qpmin=0 / qpmax=69 / qpstep=4 / cplxblur=20.0 / qblur=0.5 / ipratio=1.40 / pbratio=1.30
Default : Да
Forced : Нет

Аудио #1
Идентификатор : 2
Формат : AC-3
Формат/Информация : Audio Coding 3
Идентификатор кодека : A_AC3
Продолжительность : 2 ч. 9 м.
Вид битрейта : Постоянный
Битрейт : 640 Кбит/сек
Каналы : 6 каналов
Расположение каналов : Front: L C R, Side: L R, LFE
Частота : 48,0 КГц
Частота кадров : 31,250 кадров/сек (1536 SPF)
Битовая глубина : 16 бит
Метод сжатия : С потерями
Размер потока : 594 Мбайт (6%)
Заголовок : Дублированный
Язык : Russian
ServiceKind/Strin : Complete Main
Default : Нет
Forced : Нет

Аудио #2
Идентификатор : 3
Формат : AC-3
Формат/Информация : Audio Coding 3
Идентификатор кодека : A_AC3
Продолжительность : 2 ч. 9 м.
Вид битрейта : Постоянный
Битрейт : 640 Кбит/сек
Каналы : 6 каналов
Расположение каналов : Front: L C R, Side: L R, LFE
Частота : 48,0 КГц
Частота кадров : 31,250 кадров/сек (1536 SPF)
Битовая глубина : 16 бит
Метод сжатия : С потерями
Размер потока : 592 Мбайт (6%)
Заголовок : Original
Язык : English
ServiceKind/Strin : Complete Main
Default : Да
Forced : Нет

Текст #1
Идентификатор : 4
Формат : UTF-8
Идентификатор кодека : S_TEXT/UTF8
Идентификатор кодека/Информация : UTF-8 Plain Text
Продолжительность : 2 ч. 0 м.
Битрейт : 122 бит/сек
ElementCount : 2242
Размер потока : 108 Кбайт (0%)
Язык : Russian
Default : Нет
Forced : Нет

Текст #2
Идентификатор : 5
Формат : UTF-8
Идентификатор кодека : S_TEXT/UTF8
Идентификатор кодека/Информация : UTF-8 Plain Text
Продолжительность : 2 ч. 0 м.
Битрейт : 81 бит/сек
ElementCount : 1934
Размер потока : 72,0 Кбайт (0%)
Заголовок : Full
Язык : English
Default : Нет
Forced : Нет

Текст #3
Идентификатор : 6
Формат : UTF-8
Идентификатор кодека : S_TEXT/UTF8
Идентификатор кодека/Информация : UTF-8 Plain Text
Продолжительность : 2 ч. 0 м.
Битрейт : 88 бит/сек
ElementCount : 2115
Размер потока : 78,0 Кбайт (0%)
Заголовок : SDH
Язык : English
Default : Нет
Forced : Нет

Меню
00:00:00.000 : en:00:00:00.000
00:07:05.133 : en:00:07:05.133
00:16:03.838 : en:00:16:03.838
00:25:29.570 : en:00:25:29.570
00:33:16.828 : en:00:33:16.828
00:39:57.645 : en:00:39:57.645
00:48:07.718 : en:00:48:07.718
00:53:34.711 : en:00:53:34.711
01:03:53.246 : en:01:03:53.246
01:14:00.561 : en:01:14:00.561
01:20:23.569 : en:01:20:23.569
01:26:37.400 : en:01:26:37.400
01:32:37.051 : en:01:32:37.051
01:38:46.837 : en:01:38:46.837
01:48:13.529 : en:01:48:13.529
01:54:04.921 : en:01:54:04.921
Источник http://BlaTor.org

Трекер:  [ 11-Янв-2019 13:10 ]

  

Скачать .torrent

Размер .torrent файла 46 KB


Размер: 9.12 GB
Хэш (hash) релиза: ec1f0388ae225719cb0341a2eeb1914517193c24
Подписка на обновления:

Торренты, похожие на Иллюзия обмана 2 Now You See Me 2 скачать торрент

Форум Название Автор Размер S L Добавлен
Зарубежные фильмы до 2016 ·· Иллюзия обмана 2 / Now You See Me 2 (Джон М. Чу / Jon Chu) [2016, США, Китай, Великобритания, Канада, Боевик, триллер, комедия, криминал, детектив, приключения, DVD5 (сжатый)] исх. R5, Dub + Sub Ukr Galfimbul 46912163844.37 GB 0 0 1483037661

21:54

29-Дек-16

Зарубежные фильмы до 2016 ·· Иллюзия обмана 2 / Now You See Me 2 (Джон М. Чу / Jon Chu) [2016, США, Китай, Великобритания, Канада, боевик, триллер, комедия, криминал, детектив, приключения, DVD9] R5 Dub + Sub Ukr Galfimbul 80896225287.53 GB 0 0 1482833996

13:19

27-Дек-16

Зарубежные фильмы до 2016 ·· Иллюзия обмана 2 / Now You See Me 2 (Джон М. Чу / Jon Chu) [2016, США, Китай, Великобритания, Канада, боевик, триллер, комедия, криминал, детектив, приключения, BD> DVD9 (Custom)] DUB + Sub Rus / Eng + Original Eng Galfimbul 84737781767.89 GB 0 0 1478154478

09:27

3-Ноя-16

Зарубежные фильмы до 2016 ·· Иллюзия обмана 2 / Now You See Me 2 (Джон М. Чу / Jon Chu) [2016, США, Китай, Великобритания, Канада, боевик, триллер, комедия, криминал, детектив, приключения, DVD9 (Custom)] Dub + Sub Rus + Original Eng Galfimbul 72664166406.77 GB 0 0 1475320603

14:16

1-Окт-16

Зарубежные фильмы до 2016 ·· Иллюзия обмана 2 / Now You See Me 2 (Джон М. Чу / Jon Chu) [2016, США, Китай, Великобритания, Канада, боевик, триллер, комедия, криминал, детектив, приключения, Blu-ray disc 1080p] [RUS] Dub Galfimbul 2306074373421.48 GB 0 0 1473966675

22:11

15-Сен-16

Зарубежные фильмы 2016-2018 (Новинки зарубежного кино) ·· Иллюзия обмана 2 / Now You See Me 2 (Джон М. Чу / Jon Chu) [2016, США, боевик, триллер, комедия, криминал, BDRip-AVC] (US Transfer) Dub + Original + Sub (rus, eng) Galfimbul 33132710373.09 GB 0 0 1473172499

17:34

6-Сен-16

Зарубежные фильмы 2016-2018 (Новинки зарубежного кино) ·· Иллюзия обмана 2 / Now You See Me 2 (Джон М. Чу / Jon Chu) [2016, США, Китай, Великобритания, Канада, триллер, комедия, криминал, детектив, приключения, BDRip] [US Transfer] Dub + Sub (Rus, Eng) + Original Eng Galfimbul 27797299992.59 GB 0 0 1473009974

20:26

4-Сен-16

Зарубежные фильмы 2016-2018 (Новинки зарубежного кино) ·· Иллюзия обмана 2 / Now You See Me 2 (2016) BDRip 1080p от HDReactor | US Transfer | Лицензия Galfimbul 1250707978111.65 GB 0 0 1472976798

11:13

4-Сен-16

Зарубежные фильмы до 2016 ·· Иллюзия обмана 2 / Now You See Me 2 (Джон М. Чу / Jon Chu) [2016, США, Китай, Великобритания, Канада, триллер, комедия, криминал, детектив, приключения, BDRemux 1080p] [US Transfer] Dub + Sub (Rus, Eng) + Original Eng Galfimbul 3832588469235.69 GB 0 0 1472677646

00:07

1-Сен-16

Зарубежные фильмы до 2016 ·· Иллюзия обмана 2 / Now You See Me 2 (Джон М. Чу / Jon Chu) [2016, США, Китай, Великобритания, Канада, триллер, комедия, криминал, детектив, приключения, BDRip 1080p] Dub + Sub Rus, Eng + Original Eng Galfimbul 1875677086917.47 GB 0 0 1472677634

00:07

1-Сен-16

Зарубежные фильмы до 2016 ·· Иллюзия обмана 2 / Now You See Me 2 (Джон М. Чу / Jon Chu) [2016, США, Китай, Великобритания, Канада, триллер, комедия, криминал, детектив, приключения, BDRip 720p] Dub + Sub Rus, Eng + Original Eng Galfimbul 90997422618.47 GB 0 0 1472631611

11:20

31-Авг-16

Зарубежные фильмы 2016-2018 (Новинки зарубежного кино) ·· Иллюзия обмана 2 / Now You See Me 2 (Джон М. Чу / Jon Chu) [2016, США, Китай, Великобритания, Канада, боевик, триллер, комедия, криминал, детектив, BDRip] Dub Galfimbul 15748648961.47 GB 0 0 1472621186

08:26

31-Авг-16

Зарубежные фильмы до 2016 ·· Иллюзия обмана 2 / Now You See Me 2 (Джон М. Чу / Jon Chu) [2016, США, Китай, Великобритания, Канада, триллер, комедия, криминал, детектив, приключения, BDRip 720p] Dub + Sub Eng + Original Eng Galfimbul 90995426188.47 GB 0 0 1472502775

23:32

29-Авг-16

Зарубежные фильмы до 2016 ·· Иллюзия обмана 2 / Now You See Me 2 (Джон М. Чу / Jon Chu) [2016, США, Китай, Великобритания, Канада, триллер, комедия, криминал, детектив, приключения, BDRip 1080p] Dub + Sub Eng + Original Eng Galfimbul 1875657071717.47 GB 0 0 1472502049

23:20

29-Авг-16

Зарубежные фильмы 2016-2018 (Новинки зарубежного кино) ·· Иллюзия обмана 2 / Now You See Me 2 (Джон М. Чу / Jon Chu) [2016, США, Китай, Великобритания, Канада, боевик, триллер, комедия, криминал, детектив, прик, BDRip-AVC] Dub Galfimbul 778776668743 MB 0 0 1472050698

17:58

24-Авг-16

Зарубежные фильмы 2016-2018 (Новинки зарубежного кино) ·· Иллюзия обмана 2 / Now You See Me 2 (Джон М. Чу / Jon Chu) [2016, США, Китай, Великобритания, Канада, боевик, триллер, комедия, BDRip-AVC] [Open Matte] Dub Galfimbul 15649621231.46 GB 0 0 1471868792

15:26

22-Авг-16

Зарубежные фильмы 2016-2018 (Новинки зарубежного кино) ·· Иллюзия обмана 2 / Now You See Me 2 (Джон М. Чу) [2016, боевик, триллер, комедия, HDRip] Galfimbul 15525667341.45 GB 0 0 1471612436

16:13

19-Авг-16

Еще никто не оставлял запись к записи скачать торрент Иллюзия обмана 2 Now You See Me 2 . Будь первым!

!Обратная связь